Emily Osment - Fight Or Flight 2010

Emily Osment - Fight Or Flight 2010

Emily Osment - Fight Or Flight (2010)
EAC rip | Separate FLAC+CUE+LOG | 261 Mb | MP3 320 | 168 Mb | No covers | 34:52
Genre: Pop, alternative pop, dance-pop

Fight or Flight is the debut studio album by American pop singer-songwriter Emily Osment. Very-very-very COOL!


Tracklist:

1. "Lovesick" Emily Osment, Toby Gad, Lindy Robbins 3:24
2. "Get Yer Yah-Yah's Out" Osment, David Gamson, Oliver Leiber, Shelly Peiken 2:55
3. "1-800 Clap Your Hands(The Water Is Rising)" Osment, Adam Schlesinger 3:33
4. "Marisol" Osment, Schlesinger 4:14
5. "The Cycle" Osment, Derek Fuhrmann 2:30
6. "All the Boys Want" Osment, Matthew Bair, Ron Aniello 2:18
7. "Double Talk" Osment, Schlesinger 2:52
8. "Truth or Dare" Osment, Bair 3:02
9. "Let's Be Friends" Osment, Toby Gad, Mandi Perkins 3:00
10. "You Get Me Through" Osment, Schlesinger 3:46
11. "Gotta Believe in Something" Osment, Fuhrmann, Nellee Hooper 3:16

FILESONIK

mp3

Part 1

flac

Part 1
Part 2
Part 3

FILESERVE

mp3

Part 1

flac

Part 1
Part 2
Part 3

Exact Audio Copy V0.99 prebeta 5 from 4. May 2009

EAC extraction logfile from 5. October 2010, 17:53

Emily Osment / Fight Or Flight

Used drive : ATAPI iHAP322 8 Adapter: 0 ID: 1

Read mode : Secure
Utilize accurate stream : Yes
Defeat audio cache : Yes
Make use of C2 pointers : No

Read offset correction : 6
Overread into Lead-In and Lead-Out : No
Fill up missing offset samples with silence : Yes
Delete leading and trailing silent blocks : No
Null samples used in CRC calculations : Yes
Used interface : Native Win32 interface for Win NT & 2000
Gap handling : Appended to previous track

Used output format : User Defined Encoder
Selected bitrate : 128 kBit/s
Quality : High
Add ID3 tag : No
Command line compressor : C:\Program Files\Exact Audio Copy\Flac\flac.exe
Additional command line options : -V -8 -T "artist=%a" -T "title=%t" -T "album=%g" -T "date=%y" -T "tracknumber=%n" -T "genre=%m" %s


TOC of the extracted CD

Track | Start | Length | Start sector | End sector
---------------------------------------------------------
1 | 0:00.00 | 3:24.61 | 0 | 15360
2 | 3:24.61 | 2:55.48 | 15361 | 28533
3 | 6:20.34 | 3:33.04 | 28534 | 44512
4 | 9:53.38 | 4:14.06 | 44513 | 63568
5 | 14:07.44 | 2:31.04 | 63569 | 74897
6 | 16:38.48 | 2:18.09 | 74898 | 85256
7 | 18:56.57 | 2:52.12 | 85257 | 98168
8 | 21:48.69 | 3:02.36 | 98169 | 111854
9 | 24:51.30 | 3:00.70 | 111855 | 125424
10 | 27:52.25 | 3:46.30 | 125425 | 142404
11 | 31:38.55 | 3:17.02 | 142405 | 157181


Track 1

Filename F:\My Music\Emily Osment - 2010 - Fight Or Flight\01 - Lovesick.wav

Pre-gap length 0:00:02.00

Peak level 93.3 %
Track quality 100.0 %
Test CRC 5768A016
Copy CRC 5768A016
Track not present in AccurateRip database
Copy OK

Track 2

Filename F:\My Music\Emily Osment - 2010 - Fight Or Flight\02 - Get Yer Yah-Yah's Out.wav

Peak level 96.6 %
Track quality 99.9 %
Test CRC 318F3D97
Copy CRC 318F3D97
Track not present in AccurateRip database
Copy OK

Track 3

Filename F:\My Music\Emily Osment - 2010 - Fight Or Flight\03 - 1-800 Clap Your Hands (The Water Is Rising).wav

Peak level 93.3 %
Track quality 100.0 %
Test CRC 85C45644
Copy CRC 85C45644
Track not present in AccurateRip database
Copy OK

Track 4

Filename F:\My Music\Emily Osment - 2010 - Fight Or Flight\04 - Marisol.wav

Peak level 96.6 %
Track quality 100.0 %
Test CRC 41E6B51B
Copy CRC 41E6B51B
Track not present in AccurateRip database
Copy OK

Track 5

Filename F:\My Music\Emily Osment - 2010 - Fight Or Flight\05 - The Cycle.wav

Peak level 93.3 %
Track quality 100.0 %
Test CRC 605AD5AA
Copy CRC 605AD5AA
Track not present in AccurateRip database
Copy OK

Track 6

Filename F:\My Music\Emily Osment - 2010 - Fight Or Flight\06 - All The Boys Want.wav

Peak level 93.3 %
Track quality 99.9 %
Test CRC 40E782CA
Copy CRC 40E782CA
Track not present in AccurateRip database
Copy OK

Track 7

Filename F:\My Music\Emily Osment - 2010 - Fight Or Flight\07 - Double Talk.wav

Peak level 93.3 %
Track quality 100.0 %
Test CRC ACBFAD9B
Copy CRC ACBFAD9B
Track not present in AccurateRip database
Copy OK

Track 8

Filename F:\My Music\Emily Osment - 2010 - Fight Or Flight\08 - Truth Or Dare.wav

Peak level 93.3 %
Track quality 100.0 %
Test CRC A52E330A
Copy CRC A52E330A
Track not present in AccurateRip database
Copy OK

Track 9

Filename F:\My Music\Emily Osment - 2010 - Fight Or Flight\09 - Let's Be Friends.wav

Peak level 93.3 %
Track quality 100.0 %
Test CRC 4955D5FA
Copy CRC 4955D5FA
Track not present in AccurateRip database
Copy OK

Track 10

Filename F:\My Music\Emily Osment - 2010 - Fight Or Flight\10 - You Get Me Through.wav

Peak level 93.3 %
Track quality 100.0 %
Test CRC 6CB0110B
Copy CRC 6CB0110B
Track not present in AccurateRip database
Copy OK

Track 11

Filename F:\My Music\Emily Osment - 2010 - Fight Or Flight\11 - Gotta Believe In Something.wav

Peak level 93.3 %
Track quality 100.0 %
Test CRC 3FF11140
Copy CRC 3FF11140
Track not present in AccurateRip database
Copy OK


None of the tracks are present in the AccurateRip database

No errors occurred

End of status report

Film Ara, Film İzle

Etiketler

Emily Osment - Fight Or Flight 2010 programının en son versiyonunu ve Emily Osment - Fight Or Flight 2010 programına ait crack, serial, pachları bulabilirsiniz. Bunun yanı sıra Emily Osment - Fight Or Flight 2010 ait altyazı veya türkçe dublaj içerikleri, mp4 formatında ya da DVDRip halinde çekilmiş görüntülerini bulabilirsiniz. Emily Osment - Fight Or Flight 2010 tam sürümdür ve sorunsuzca kurulabilmektedir. Dilerseniz Emily Osment - Fight Or Flight 2010 türkçe yama (pach) ile türkçe olarakta kullanabilirsiniz. Hepsi bir yana Emily Osment - Fight Or Flight 2010'i hotfile, rapidshare, filesonic, uploading, fileserve, uploadstation, netload vb birçok download sitesine ait download linklerini bulabilirsiniz.

Yorumlar


Hiç yazılmış yorum bulunmamaktadır.

Yorum Ekle Lütfen site kuralları çerçevesinde yorumlarınızı ekleyiniz...


guvenlik9guvenlik7guvenlik1guvenlik9guvenlik7

UYARI: Küfür, hakaret, rencide edici cümleler veya imalar, inançlara saldırı içeren, imla kuralları ile yazılmamış, Türkçe karakter kullanılmayan ve büyük harflerle yazılmış yorumlar onaylanmamaktadır.