Alesha Dixon - The Alesha Show 2008

Alesha Dixon - The Alesha Show 2008

Alesha Dixon - The Alesha Show (2008)
EAC-Rip | APE-image +cue +log +COVERS | 24 Nov 2008 | 373 Mb
Genre: Pop, Funk , Soul | Label: Asylum | HF, Fserve


Long delayed second solo album from Miss Alesha Dixon, following her debut 'Fired Up' on Polydor, which was ultimately released only in Japan. A former member of seminal 90s UK RnB girl group Mis-Teeq, Dixon is probably better known to most as the winner of 2007's Strictly Come Dancing, and this reputation is played on in the lyrics of lead single 'The Boy Does Nothing'. On the album, Dixon is reinvented as a sassy,soulful songstress, utilizing her fine voice across a variety of genres from pop to funk and even mambo.

Tracklist:

1. Welcome To The Alesha Show 0:26
2. Let's Get Excited 3:18
3. Breathe Slow 4:13
4. Cinderella Shoe 2:41
5. The Boy Does Nothing 3:34
6. Chasing Ghosts 3:43
7. Play Me 3:36
8. Hand It Over 3:35
9. Do You Know The Way It Feels 4:04
10. Can I Begin 3:32
11. Italians Do It Better 4:10
12. Ooh Baby I Like It Like That 3:45
13. Don't Ever Let Me Go 3:44
14. I'm Thru 8:56

Exact Audio Copy V0.99 prebeta 4 from 23. January 2008

????? EAC ?? ??????????, ??????????? 7. ?????? 2009, 19:12

Alesha Dixon / The Alesha Show

????????: PIONEER DVD-RW DVR-112D Adapter: 1 ID: 0

????? ?????? : ?????????????
????????????? ??????? ?????? : ??
?????????? ???? ????? : ??
????????????? ?????????? C2 : ???

????????? ???????? ??? ?????? : 48
??????????? ?????? ??????? Lead-in ? Lead-out : ???
?????????? ??????????? ??????? ??????? : ??
???????? ?????? ? ??????? ? ?????? ? ????? : ???
??? ??????????? CRC ?????????????? ??????? ?????? : ??
????????? : ????????????? ??????? ASPI-?????????

???????? ?????? : ?????????? WAV-????????
?????? ??????? : 44.100 ??; 16 ???; ??????

TOC ???????????? CD

???? | ????? | ???????????? | ????????? ?????? | ???????? ??????
---------------------------------------------------------------------
1 | 0:00.00 | 0:24.63 | 0 | 1862
2 | 0:24.63 | 3:21.23 | 1863 | 16960
3 | 3:46.11 | 4:11.42 | 16961 | 35827
4 | 7:57.53 | 2:40.43 | 35828 | 47870
5 | 10:38.21 | 3:31.13 | 47871 | 63708
6 | 14:09.34 | 3:42.57 | 63709 | 80415
7 | 17:52.16 | 3:37.35 | 80416 | 96725
8 | 21:29.51 | 3:34.50 | 96726 | 112825
9 | 25:04.26 | 4:06.06 | 112826 | 131281
10 | 29:10.32 | 3:33.47 | 131282 | 147303
11 | 32:44.04 | 4:09.32 | 147304 | 166010
12 | 36:53.36 | 3:45.50 | 166011 | 182935
13 | 40:39.11 | 3:42.61 | 182936 | 199646
14 | 44:21.72 | 8:55.61 | 199647 | 239832

?????????????? ????????? ?????????? ? ????????? ?? ???????

????????? ????????

??? ????? D:\Alesha Dixon\Alesha Dixon - The Alesha Show.wav

??????? ??????? 100.0 %
???????? ????????? 99.6 %
CRC ????? 6D3E7CCC
???????????... OK

?????? ?? ?????????

????? ??????


Download Alesha Dixon - The Alesha Show (2008):

Fileserve.com:
Part 1 | Part 2

Hotfile.com
Part 1 | Part 2

Film Ara, Film İzle

Etiketler

Alesha Dixon - The Alesha Show 2008 programının en son versiyonunu ve Alesha Dixon - The Alesha Show 2008 programına ait crack, serial, pachları bulabilirsiniz. Bunun yanı sıra Alesha Dixon - The Alesha Show 2008 ait altyazı veya türkçe dublaj içerikleri, mp4 formatında ya da DVDRip halinde çekilmiş görüntülerini bulabilirsiniz. Alesha Dixon - The Alesha Show 2008 tam sürümdür ve sorunsuzca kurulabilmektedir. Dilerseniz Alesha Dixon - The Alesha Show 2008 türkçe yama (pach) ile türkçe olarakta kullanabilirsiniz. Hepsi bir yana Alesha Dixon - The Alesha Show 2008'i hotfile, rapidshare, filesonic, uploading, fileserve, uploadstation, netload vb birçok download sitesine ait download linklerini bulabilirsiniz.

Yorumlar


Hiç yazılmış yorum bulunmamaktadır.

Yorum Ekle Lütfen site kuralları çerçevesinde yorumlarınızı ekleyiniz...


guvenlik2guvenlik9guvenlik3guvenlik1guvenlik0

UYARI: Küfür, hakaret, rencide edici cümleler veya imalar, inançlara saldırı içeren, imla kuralları ile yazılmamış, Türkçe karakter kullanılmayan ve büyük harflerle yazılmış yorumlar onaylanmamaktadır.