Ace Of Base - The Golden Ratio 2010

Ace Of Base - The Golden Ratio 2010

Ace Of Base - The Golden Ratio (2010)

EAC | FLAC, Img Cue, Log Checker | - 395 Mb | Full Scans Included (Covers & Booklet, JPG, 600 dpi)
MP3 CBR320 | - 150 Mb | FileSonic, FileServe, Uploaded | 3% Recovery
Genre: Pop, Eurodance, Electronic | Label: Playground Music / Universal Music | Catalog#: 2751362


The Golden Ratio is the fifth album by Swedish pop music group, Ace of Base. It was recorded in late 2009, through mid-2010. It is the first album to feature two new vocalists: Clara Hagman and Julia Williamson. Production on a fifth album initially began with former band member, and lead vocalist, Jenny Berggren. The resulting sessions were shelved. Berggren decided to formally part with the band in 2009, launching a solo career.
The Golden Ratio marks the band's first album of completely new material since their 2002 album, Da Capo. The album entered the German album charts at #20 and at # 100 in Switzerland.

2


Ace of Base from Wiki

3


Track List:

01. All for you [03:38]
02. Blah, blah, blah on the radio [03:47]
03. The golden ratio [03:47]
04. Southern California [03:16]
05. Told my ma [03:51]
06. Black sea [03:42]
07. One day [03:05]
08. Juliet [03:17]
09. Precious [03:54]
10. Vision in blue [03:56]
11. Mr. Replay (feat. Lex Marshall) [04:18]
12. Who am I [03:07]
13. Doreen [03:38]

[Verification date: 21.12.2010 0:37:51]
[Disc ID: 0016b24a-00e2dfeb-970b140d]
Track [ CRC ] Status
01 [61a8f598] (00/02) No matches
02 [1ed2a0b4] (00/03) No matches
03 [d83aa919] (00/03) No matches
04 [c730450f] (00/03) No matches
05 [e20126f6] (00/03) No matches
06 [6fb14787] (00/03) No matches
07 [a5dda93e] (00/03) No matches
08 [28ad01ab] (00/03) No matches
09 [950cb756] (00/03) No matches
10 [e0df3e13] (00/03) No matches
11 [4db57b51] (00/03) No matches
12 [c0d9fec3] (00/03) No matches
13 [e9ac533f] (00/03) No matches
Offsetted by -72:
01 [6c39ba10] (00/02) No matches
02 [4cbd9bb4] (00/03) No matches
03 [c93f1b49] (00/03) No matches
04 [5a920737] (00/03) No matches
05 [04559416] (00/03) No matches
06 [bd01f40f] (00/03) No matches
07 [43197756] (00/03) No matches
08 [c04029cb] (00/03) No matches
09 [3a645396] (00/03) No matches
10 [fb3046cb] (00/03) No matches
11 [fa046911] (00/03) No matches
12 [409e26cb] (00/03) No matches
13 [8e4ce3d7] (00/03) No matches
Offsetted by 30:
01 [32974e66] (02/02) Accurately ripped as in pressing(s) #1
02 [61060d74] (03/03) Accurately ripped as in pressing(s) #1
03 [09237985] (03/03) Accurately ripped as in pressing(s) #1
04 [b4723429] (03/03) Accurately ripped as in pressing(s) #1
05 [7e5df97e] (03/03) Accurately ripped as in pressing(s) #1
06 [4f7a54f9] (03/03) Accurately ripped as in pressing(s) #1
07 [39af68b4] (03/03) Accurately ripped as in pressing(s) #1
08 [542fb0f3] (03/03) Accurately ripped as in pressing(s) #1
09 [3ad2e0e6] (03/03) Accurately ripped as in pressing(s) #1
10 [eb3d7a71] (03/03) Accurately ripped as in pressing(s) #1
11 [b0949841] (03/03) Accurately ripped as in pressing(s) #1
12 [e0f2ee15] (03/03) Accurately ripped as in pressing(s) #1
13 [7b73f46d] (03/03) Accurately ripped as in pressing(s) #1

Track [ CRC32 ] [W/O NULL] [ LOG ]
-- [A27F2C41] [18BDF1F6] CRC32
01 [7A81CFA1] [7C3287CD]
02 [7178529A] [CDBDBAD5]
03 [93F72727] [22418EB6]
04 [F229F235] [DA575A8E]
05 [25BBEE9B] [9BCC8FEF]
06 [28F8F3AB] [6EA416BE]
07 [9D3B0BFC] [80C69EF2]
08 [65747D77] [AE91EB63]
09 [5E8256F3] [83749B2C]
10 [D5039D68] [7227AE8D]
11 [E074DC0A] [640E5A5C]
12 [EEB595AD] [2B295816]
13 [9D5074D5] [442DF4A1]


4


5



LOSSLESS

FileSonic:

part 1 | part 2 | part 3 | part 4

FileServe:

part 1 | part 2 | part 3 | part 4

Uploaded:

part 1 | part 2 | part 3 | part 4


mp3

FileSonic: part 1 | FileSonic: part 2

FileServe: part 1 | FileServe: part 2

Uploaded: part 1 | Uploaded: part 2

pass: shsv

Film Ara, Film İzle

Etiketler

Ace Of Base - The Golden Ratio 2010 programının en son versiyonunu ve Ace Of Base - The Golden Ratio 2010 programına ait crack, serial, pachları bulabilirsiniz. Bunun yanı sıra Ace Of Base - The Golden Ratio 2010 ait altyazı veya türkçe dublaj içerikleri, mp4 formatında ya da DVDRip halinde çekilmiş görüntülerini bulabilirsiniz. Ace Of Base - The Golden Ratio 2010 tam sürümdür ve sorunsuzca kurulabilmektedir. Dilerseniz Ace Of Base - The Golden Ratio 2010 türkçe yama (pach) ile türkçe olarakta kullanabilirsiniz. Hepsi bir yana Ace Of Base - The Golden Ratio 2010'i hotfile, rapidshare, filesonic, uploading, fileserve, uploadstation, netload vb birçok download sitesine ait download linklerini bulabilirsiniz.

Yorumlar


Hiç yazılmış yorum bulunmamaktadır.

Yorum Ekle Lütfen site kuralları çerçevesinde yorumlarınızı ekleyiniz...


guvenlik0guvenlik8guvenlik2guvenlik0guvenlik8

UYARI: Küfür, hakaret, rencide edici cümleler veya imalar, inançlara saldırı içeren, imla kuralları ile yazılmamış, Türkçe karakter kullanılmayan ve büyük harflerle yazılmış yorumlar onaylanmamaktadır.