Ratatouille - Aşçı Fare | 2007 | 1080p | DUAL (TR – ENG)

Ratatouille – Aşçı Fare | 2007 | 1080p | DUAL (TR – ENG)

Ramy adındaki bir fare, ailesinin tüm istemeyişi ve bir fare olarak yapılması imkansız olmasına rağmen, büyük bir Fransız aşçı olma hayalleri kuruyor. Kader Remyyi Parisin kanalizasyonlarına attığında, Remy kendini, yemek pişirme üstadı Auguste Gusteau sayesinde ünlenmiş bir restoranın altında buluyor. Eşsiz bir Fransız restoranının mutfağındaki hoşlanılmayan ve hatta kesinlikle istenmeyen bir misafir olmanın getirdiği tehlikelere rağmen, Remynin aşçı olma arzusu; tüm olayları alevlendirerek Parisin yemek dünyasını tepe taklak eden inanılmaz bir üstünlük mücadelesi başlatır.

[code]
General

Complete name : C:Users ootDesktop1080pRatatouille 2007 BluRay 1080p DUAL TR ENG x264 NOVA.mkv
Format : Matroska
Format version : Version 2
File size : 7.25 GiB
Duration : 1h 50mn
Overall bit rate : 9 387 Kbps
Movie name : NOVA - Ratatouille - http://www.TURKNOVA.net
Encoded date : UTC 2012-10-27 23:19:41
Writing application : mkvmerge v5.8.0 ('No Sleep / Pillow') built on Sep 2 2012 15:37:04
Writing library : libebml v1.2.3 libmatroska v1.3.0
Attachment : Yes / Yes

Video
ID : 1
Format : AVC
Format/Info : Advanced Video Codec
Format profile : High@L4.1
Format settings, CABAC : Yes
Format settings, ReFrames : 5 frames
Muxing mode : Header stripping
Codec ID : V_MPEG4/ISO/AVC
Duration : 1h 50mn
Bit rate : 7 050 Kbps
Width : 1 920 pixels
Height : 804 pixels
Display aspect ratio : 2.40:1
Frame rate mode : Constant
Frame rate : 23.976 fps
Color space : YUV
Chroma subsampling : 4:2:0
Bit depth : 8 bits
Scan type : Progressive
Bits/(Pixel*Frame) : 0.190
Stream size : 5.44 GiB (75%)
Title : NOVA - Ratatouille
Writing library : x264 core 118 r2085kMod 8a62835
Encoding settings : cabac=1 / ref=5 / deblock=1:-1:-1 / analyse=0x3:0x133 / me=umh / subme=11 / psy=1 / fade_compensate=0.00 / psy_rd=1.00:0.00 / mixed_ref=1 / me_range=32 / chroma_me=1 / trellis=2 / 8x8dct=1 / cqm=0 / deadzone=21,11 / fast_pskip=0 / chroma_qp_offset=-2 / threads=12 / sliced_threads=0 / nr=0 / decimate=1 / interlaced=0 / bluray_compat=0 / constrained_intra=0 / bframes=7 / b_pyramid=2 / b_adapt=2 / b_bias=0 / direct=3 / weightb=1 / open_gop=0 / weightp=2 / keyint=250 / keyint_min=23 / scenecut=40 / intra_refresh=0 / rc_lookahead=60 / rc=crf / mbtree=0 / crf=16.6400 / qcomp=0.60 / qpmin=0 / qpmax=69 / qpstep=4 / vbv_maxrate=50000 / vbv_bufsize=62500 / crf_max=0.0 / nal_hrd=none / ip_ratio=1.40 / pb_ratio=1.30 / aq=3:1.00
Language : English
Default : Yes
Forced : No
Matrix coefficients : BT.709

Audio #1
ID : 2
Format : AC-3
Format/Info : Audio Coding 3
Mode extension : CM (complete main)
Format settings, Endianness : Big
Muxing mode : Header stripping
Codec ID : A_AC3
Duration : 1h 50mn
Bit rate mode : Constant
Bit rate : 640 Kbps
Channel(s) : 6 channels
Channel positions : Front: L C R, Side: L R, LFE
Sampling rate : 48.0 KHz
Bit depth : 16 bits
Compression mode : Lossy
Stream size : 506 MiB (7%)
Title : NOVA - 640Kbps TR
Language : Turkish
Default : Yes
Forced : No

Audio #2
ID : 3
Format : DTS
Format/Info : Digital Theater Systems
Muxing mode : Header stripping
Codec ID : A_DTS
Duration : 1h 50mn
Bit rate mode : Constant
Bit rate : 1 510 Kbps
Channel(s) : 6 channels
Channel positions : Front: L C R, Side: L R, LFE
Sampling rate : 48.0 KHz
Bit depth : 24 bits
Compression mode : Lossy
Stream size : 1.17 GiB (16%)
Title : NOVA - 1510Kbps ENG
Language : English
Default : No
Forced : No
[/code]

.::::: SHAREFLARE TEK LİNK İNDİR :::::.

http://u18118332.shareflare.net/download/35457.349d7b0f4f9dadd54ef1a7e57cff/Ratatouille_2007_BluRay_1080p_DUAL_TR_ENG_x264_NOVA.mkv.html

.::::: TURBOBİT TEK LİNK İNDİR :::::.

http://turbobit.net/m6g9ikwv4qe7.html


Etiketler

Ratatouille - Aşçı Fare | 2007 | 1080p | DUAL (TR – ENG) programının en son versiyonunu ve Ratatouille - Aşçı Fare | 2007 | 1080p | DUAL (TR – ENG) programına ait crack, serial, pachları bulabilirsiniz. Bunun yanı sıra Ratatouille - Aşçı Fare | 2007 | 1080p | DUAL (TR – ENG) ait altyazı veya türkçe dublaj içerikleri, mp4 formatında ya da DVDRip halinde çekilmiş görüntülerini bulabilirsiniz. Ratatouille - Aşçı Fare | 2007 | 1080p | DUAL (TR – ENG) tam sürümdür ve sorunsuzca kurulabilmektedir. Dilerseniz Ratatouille - Aşçı Fare | 2007 | 1080p | DUAL (TR – ENG) türkçe yama (pach) ile türkçe olarakta kullanabilirsiniz. Hepsi bir yana Ratatouille - Aşçı Fare | 2007 | 1080p | DUAL (TR – ENG)'i hotfile, rapidshare, filesonic, uploading, fileserve, uploadstation, netload vb birçok download sitesine ait download linklerini bulabilirsiniz.

Yorumlar


iko

21.04.2017 01:11:48

turbobit linki ölmüş. acaba yenilemeniz mümkün müdür?

Yorum Ekle Lütfen site kuralları çerçevesinde yorumlarınızı ekleyiniz...



UYARI: Küfür, hakaret, rencide edici cümleler veya imalar, inançlara saldırı içeren, imla kuralları ile yazılmamış, Türkçe karakter kullanılmayan ve büyük harflerle yazılmış yorumlar onaylanmamaktadır.